<?xml version="1.0" standalone="no"?>
<!DOCTYPE svg PUBLIC "-//W3C//DTD SVG 1.1//EN" "http://www.w3.org/Graphics/SVG/1.1/DTD/svg11.dtd" >
<svg xmlns="http://www.w3.org/2000/svg">
<metadata>Generated by IcoMoon</metadata>
<defs>
<font id="icomoon" horiz-adv-x="1024">
<font-face units-per-em="1024" ascent="960" descent="-64" />
<missing-glyph horiz-adv-x="1024" />
<glyph unicode="&#x20;" horiz-adv-x="512" d="" />
<glyph unicode="&#xe900;" glyph-name="arrow-left-icon" d="M967.68 391.68h-768l235.52-281.6c25.6-25.6 20.48-66.56-5.12-92.16s-66.56-20.48-92.16 5.12c0 0 0 0 0 0l-322.56 394.24c0 5.12-5.12 5.12-5.12 10.24s-5.12 5.12-5.12 10.24c-5.12 10.24-5.12 30.72 0 46.080 0 5.12 5.12 5.12 5.12 10.24s5.12 5.12 5.12 10.24l322.56 384c20.48 25.6 61.44 30.72 87.040 5.12 30.72-20.48 35.84-61.44 10.24-87.040 0 0 0 0 0 0l-235.52-281.6h762.88c35.84 0 66.56-30.72 66.56-66.56s-25.6-66.56-61.44-66.56v0z" />
<glyph unicode="&#xe901;" glyph-name="arrow-right-icon" d="M66.56 391.68h762.88l-235.52-281.6c-25.6-25.6-20.48-66.56 5.12-92.16s66.56-20.48 92.16 5.12c0 0 0 0 0 0l322.56 384c0 5.12 5.12 5.12 5.12 10.24s5.12 5.12 5.12 10.24c5.12 15.36 5.12 30.72 0 46.080 0 5.12-5.12 5.12-5.12 10.24s-5.12 5.12-5.12 10.24l-322.56 384c-20.48 25.6-61.44 30.72-92.16 10.24-25.6-20.48-30.72-61.44-10.24-92.16l235.52-281.6h-757.76c-35.84 10.24-66.56-20.48-66.56-56.32s30.72-66.56 66.56-66.56z" />
<glyph unicode="&#xe902;" glyph-name="btn_arrow-left" d="M671.086 469.943h-272.457l84.114 100.571c9.143 9.143 7.314 23.771-1.829 32.914s-23.771 7.314-32.914-1.829c0 0 0 0 0 0l-115.2-137.143c0-1.829-1.829-1.829-1.829-3.657s-1.829-1.829-1.829-3.657c-1.829-5.486-1.829-10.971 0-16.457 0-1.829 1.829-1.829 1.829-3.657s1.829-1.829 1.829-3.657l115.2-137.143c7.314-9.143 21.943-10.971 32.914-3.657 9.143 7.314 10.971 21.943 3.657 32.914l-84.114 100.571h272.457c12.8 0 23.771 10.971 23.771 23.771s-12.8 20.114-25.6 20.114zM512-45.714c65.829 0 131.657 12.8 192 38.4 58.514 25.6 111.543 60.343 157.257 106.057s80.457 98.743 106.057 157.257c25.6 60.343 38.4 126.171 38.4 192s-12.8 131.657-38.4 192c-25.6 58.514-60.343 111.543-106.057 157.257s-98.743 80.457-157.257 106.057c-60.343 25.6-126.171 38.4-192 38.4-71.314 0-142.629-14.629-202.971-43.886-87.771-40.229-159.086-102.4-210.286-181.029-53.029-80.457-80.457-171.886-80.457-268.8 0-65.829 12.8-131.657 38.4-192 25.6-58.514 60.343-111.543 106.057-157.257s98.743-80.457 157.257-106.057c60.343-25.6 126.171-38.4 192-38.4zM512-64c-283.429 0-512 228.571-512 512 0 204.8 120.686 382.171 299.886 466.286 62.171 29.257 135.314 45.714 212.114 45.714 283.429 0 512-228.571 512-512s-228.571-512-512-512z" />
<glyph unicode="&#xe903;" glyph-name="btn_arrow-right" d="M352.914 426.057h272.457l-84.114-100.571c-9.143-9.143-7.314-23.771 1.829-32.914s23.771-7.314 32.914 1.829c0 0 0 0 0 0l115.2 137.143c0 1.829 1.829 1.829 1.829 3.657s1.829 1.829 1.829 3.657c1.829 5.486 1.829 10.971 0 16.457 0 1.829-1.829 1.829-1.829 3.657s-1.829 1.829-1.829 3.657l-115.2 137.143c-7.314 9.143-21.943 10.971-32.914 3.657-9.143-7.314-10.971-21.943-3.657-32.914l84.114-100.571h-270.629c-12.8 0-23.771-10.971-23.771-23.771s10.971-20.114 23.771-20.114zM512 941.714c-65.829 0-131.657-12.8-192-38.4-58.514-25.6-111.543-60.343-157.257-106.057s-80.457-98.743-106.057-157.257c-25.6-60.343-38.4-126.171-38.4-192s12.8-131.657 38.4-192c25.6-58.514 60.343-111.543 106.057-157.257s98.743-80.457 157.257-106.057c60.343-25.6 126.171-38.4 192-38.4 71.314 0 142.629 14.629 202.971 43.886 85.943 40.229 159.086 102.4 210.286 181.029 53.029 80.457 80.457 171.886 80.457 268.8 0 65.829-12.8 131.657-38.4 192-25.6 58.514-60.343 111.543-106.057 157.257s-98.743 80.457-157.257 106.057c-60.343 25.6-126.171 38.4-192 38.4zM512 960c283.429 0 512-228.571 512-512 0-204.8-120.686-382.171-299.886-466.286-62.171-29.257-135.314-45.714-212.114-45.714-283.429 0-512 228.571-512 512s228.571 512 512 512z" />
<glyph unicode="&#xe904;" glyph-name="btn_close" d="M512-64c-281.6 0-512 230.4-512 512s230.4 512 512 512 512-230.4 512-512-230.4-512-512-512zM512 941.714c-272.457 0-493.714-221.257-493.714-493.714s221.257-493.714 493.714-493.714 493.714 221.257 493.714 493.714-221.257 493.714-493.714 493.714zM396.8 594.286l115.2-115.2 115.2 115.2c7.314 9.143 21.943 9.143 29.257 1.829 9.143-7.314 9.143-21.943 1.829-29.257 0 0 0 0-1.829-1.829l-113.371-117.029 115.2-115.2c9.143-7.314 9.143-21.943 1.829-29.257-7.314-9.143-21.943-9.143-29.257-1.829 0 0 0 0-1.829 1.829l-117.029 115.2-115.2-117.029c-7.314-9.143-20.114-10.971-29.257-1.829-9.143 7.314-10.971 20.114-1.829 29.257 0 0 1.829 1.829 1.829 1.829l115.2 115.2-117.029 117.029c-9.143 9.143-9.143 21.943 0 29.257 9.143 9.143 21.943 9.143 31.086 1.829z" />
<glyph unicode="&#xe905;" glyph-name="btn_facebook" d="M512-64c-283.106 0-512 228.894-512 512 0 135.529 54.212 265.035 150.588 361.412 198.776 198.776 524.047 198.776 722.824 0s198.776-524.047 0-722.824c-96.376-96.376-225.882-150.588-361.412-150.588zM391.529 538.353v-69.271h51.2v-234.918h93.365v234.918h75.294l6.024 69.271h-81.318v54.212c0 6.024 3.012 24.094 36.141 24.094 15.059 0 27.106-3.012 39.153-6.024l12.047 69.271c-30.118 6.024-60.235 9.035-90.353 9.035-30.118 3.012-60.235-12.047-78.306-33.129-12.047-21.082-18.071-45.176-15.059-69.271v-48.188h-48.188z" />
<glyph unicode="&#xe906;" glyph-name="btn_instagram" d="M512-64c-283.106 0-512 228.894-512 512 0 135.529 54.212 265.035 150.588 361.412 198.776 198.776 524.047 198.776 722.824 0s198.776-524.047 0-722.824c-96.376-96.376-225.882-150.588-361.412-150.588zM415.624 658.824c-66.259 0-123.482-54.212-123.482-123.482v-183.718c0-66.259 54.212-123.482 123.482-123.482h183.718c66.259 0 123.482 54.212 123.482 123.482v183.718c0 66.259-54.212 123.482-123.482 123.482h-183.718zM599.341 267.294h-183.718c-48.188 0-84.329 39.153-84.329 84.329v183.718c0 48.188 39.153 84.329 84.329 84.329h183.718c48.188 0 84.329-39.153 84.329-84.329v-183.718c0-48.188-36.141-84.329-84.329-84.329zM505.976 553.412c-60.235 0-108.424-48.188-108.424-108.424s48.188-108.424 108.424-108.424 108.424 48.188 108.424 108.424c3.012 60.235-48.188 108.424-108.424 108.424v0zM620.424 586.541c-15.059 0-27.106-12.047-27.106-27.106s12.047-27.106 27.106-27.106 27.106 12.047 27.106 27.106c0 15.059-12.047 27.106-27.106 27.106v0 0zM505.976 369.694c-39.153 0-72.282 33.129-72.282 72.282s33.129 72.282 72.282 72.282 72.282-33.129 72.282-72.282v0c3.012-39.153-30.118-72.282-72.282-72.282v0z" />
<glyph unicode="&#xe907;" glyph-name="btn_logout" d="M442.996 441.526h270.865l-82.581-99.097c-6.606-9.91-3.303-26.426 6.606-33.032s23.123-6.606 29.729 3.303l115.613 138.735c0 0 0 3.303 3.303 3.303v3.303c3.303 6.606 3.303 9.91 0 16.516v3.303c0 0 0 3.303-3.303 3.303l-115.613 138.735c-6.606 9.91-23.123 13.213-33.032 6.606-9.91-9.91-13.213-23.123-6.606-33.032l3.303-3.303 82.581-99.097h-270.865c-13.213-3.303-23.123-16.516-23.123-26.426 3.303-13.213 9.91-19.819 23.123-23.123v0zM482.271 196.955v0h-138.735c-16.516 0-33.032 6.606-42.942 16.516s-16.516 26.426-16.516 42.942v416.206c0 16.516 6.606 33.032 16.516 42.942s26.426 16.516 42.942 16.516v0h138.735c33.032 0 62.761-26.426 62.761-62.761v-89.187c0-13.213-9.91-23.123-23.123-23.123v0c-13.213 0-23.123 9.91-23.123 23.123v92.49c0 6.606-6.606 13.213-13.213 13.213h-138.735c-9.91 0-13.213-6.606-13.213-13.213v-416.206c0-9.91 6.606-13.213 13.213-13.213v0h142.039c3.303 0 6.606 3.303 9.91 3.303 3.303 3.303 3.303 6.606 3.303 9.91v92.49c0 13.213 9.91 23.123 23.123 23.123s23.123-9.91 23.123-23.123v-92.49c0-16.516-6.606-33.032-19.819-42.942s-29.729-16.516-46.245-16.516zM512-64c-280.774 0-512 231.226-512 512s231.226 512 512 512 512-231.226 512-512-231.226-512-512-512zM512 926.968c-264.258 0-478.968-214.71-478.968-478.968s214.71-478.968 478.968-478.968 478.968 214.71 478.968 478.968-214.71 478.968-478.968 478.968z" />
<glyph unicode="&#xe908;" glyph-name="btn_play" d="M406.555 215.4v461.010l375.793-231.902-375.793-229.108zM406.555 215.4l375.793 229.108-375.793 230.505v-459.613zM511.329 960c-282.194 0-511.302-229.108-511.302-512.698s229.108-512.698 512.698-512.698 512.698 229.108 512.698 512.698c0 135.509-54.483 265.43-149.479 361.823-97.79 96.393-227.711 150.876-364.617 150.876zM511.329 7.247c-243.078 0-440.055 196.977-440.055 440.055s196.977 440.055 440.055 440.055 440.055-196.977 440.055-440.055c0-117.348-46.101-229.108-128.524-311.531-82.423-81.026-194.183-128.524-311.531-128.524z" />
<glyph unicode="&#xe909;" glyph-name="btn_twitter" d="M512-64c-283.106 0-512 228.894-512 512 0 135.529 54.212 265.035 150.588 361.412 198.776 198.776 524.047 198.776 722.824 0s198.776-524.047 0-722.824c-96.376-96.376-225.882-150.588-361.412-150.588zM307.2 327.529v0c39.153-24.094 84.329-39.153 129.506-39.153 69.271-3.012 135.529 27.106 180.706 78.306 39.153 45.176 63.247 102.4 63.247 162.635 0 3.012 0 6.024 0 12.047 18.071 12.047 30.118 27.106 42.165 45.176-15.059-6.024-33.129-12.047-48.188-12.047 18.071 12.047 30.118 27.106 36.141 48.188-18.071-9.035-36.141-18.071-54.212-21.082-15.059 18.071-39.153 27.106-63.247 27.106-48.188 0-84.329-39.153-84.329-84.329 0-6.024 0-12.047 3.012-18.071-69.271 3.012-132.518 36.141-174.682 90.353-9.035-12.047-12.047-27.106-12.047-42.165 0-27.106 15.059-54.212 39.153-72.282-12.047 0-27.106 3.012-39.153 12.047v0c0-39.153 30.118-75.294 69.271-84.329-6.024-3.012-15.059-3.012-21.082-3.012s-12.047 0-15.059 3.012c12.047-36.141 42.165-57.224 78.306-60.235-30.118-24.094-66.259-36.141-105.412-36.141-12.047-6.024-18.071-6.024-24.094-6.024z" />
<glyph unicode="&#xe90a;" glyph-name="btn_youtube" d="M512-64c-283.106 0-512 228.894-512 512 0 135.529 54.212 265.035 150.588 361.412 198.776 198.776 524.047 198.776 722.824 0s198.776-524.047 0-722.824c-96.376-96.376-225.882-150.588-361.412-150.588zM346.353 598.588c-27.106 0-51.2-24.094-51.2-51.2v-207.812c0-27.106 24.094-51.2 51.2-54.212h343.341c30.118 0 51.2 24.094 54.212 54.212v207.812c0 27.106-24.094 51.2-54.212 51.2 0 0-343.341 0-343.341 0zM481.882 378.729c-6.024 0-12.047 3.012-12.047 12.047v105.412c0 6.024 3.012 12.047 9.035 12.047v0c3.012 0 6.024 0 6.024-3.012l93.365-51.2c3.012-3.012 6.024-6.024 6.024-9.035s-3.012-9.035-6.024-12.047l-93.365-54.212c0 0 0 0-3.012 0z" />
<glyph unicode="&#xe90b;" glyph-name="burguer-close-icon" d="M9.717 23.933c-8.715-8.715-13.072-21.787-8.715-34.86 0-13.072 8.715-26.145 17.43-34.86s21.787-13.072 39.217-17.43c13.072 0 26.145 4.357 34.86 13.072l919.421 919.421c8.715 8.715 13.072 21.787 13.072 34.86s-8.715 26.145-17.43 39.217c-8.715 8.715-21.787 17.43-39.217 17.43-13.072 0-26.145-4.357-34.86-13.072l-923.779-923.779c4.357 4.357 0 0 0 0zM1011.93 23.933c8.715-8.715 13.072-21.787 8.715-34.86 0-13.072-8.715-26.145-17.43-34.86s-21.787-13.072-39.217-17.43c-13.072 0-26.145 4.357-34.86 13.072l-919.421 919.421c-8.715 8.715-13.072 21.787-13.072 34.86s8.715 26.145 17.43 39.217c8.715 8.715 21.787 17.43 39.217 17.43 13.072 0 26.145-4.357 34.86-13.072l923.779-923.779c0 4.357 0 0 0 0v0z" />
<glyph unicode="&#xe90c;" glyph-name="burguer-menu-icon" d="M33.032 827.871c-9.91 0-19.819-6.606-23.123-13.213-6.606-9.91-9.91-19.819-9.91-29.729s3.303-19.819 9.91-26.426c6.606-6.606 16.516-9.91 23.123-9.91h957.935c9.91 0 19.819 3.303 23.123 9.91 13.213 16.516 13.213 39.639 0 56.155 0 9.91-9.91 13.213-19.819 13.213h-957.935c0 0-3.303 0-3.303 0v0zM33.032 481.032c-9.91 0-16.516-6.606-23.123-13.213-6.606-9.91-9.91-19.819-9.91-29.729s3.303-19.819 9.91-26.426c6.606-6.606 16.516-9.91 23.123-9.91h957.935c9.91 0 19.819 3.303 23.123 9.91 13.213 16.516 13.213 39.639 0 56.155-6.606 6.606-16.516 9.91-23.123 9.91h-957.935c3.303 3.303 0 3.303 0 3.303v0zM33.032 134.194c-9.91 0-16.516-6.606-23.123-13.213-6.606-9.91-9.91-19.819-9.91-29.729s3.303-19.819 9.91-26.426c6.606-6.606 16.516-9.91 23.123-9.91h957.935c9.91 0 19.819 3.303 23.123 9.91 13.213 16.516 13.213 39.639 0 56.155-6.606 6.606-16.516 9.91-23.123 9.91h-957.935c3.303 3.303 0 3.303 0 3.303z" />
<glyph unicode="&#xe90d;" glyph-name="chevron-down-icon" d="M577.164 215.273c-27.927-18.618-65.164-18.618-93.091 0l-456.145 372.364c-18.618 18.618-27.927 37.236-27.927 65.164 0 37.236 37.236 74.473 74.473 74.473 18.618 0 37.236-9.309 46.545-18.618l400.291-335.127 409.6 325.818c37.236 27.927 83.782 27.927 111.709-9.309s27.927-83.782-9.309-111.709z" />
<glyph unicode="&#xe90e;" glyph-name="chevron-left-icon" d="M680.659 960c42.165 0 72.282-30.118 72.282-72.282 0-18.071-6.024-36.141-18.071-48.188l-325.271-385.506 313.224-391.529c24.094-30.118 18.071-78.306-12.047-102.4s-78.306-18.071-102.4 12.047v0l-349.365 433.694c-24.094 24.094-24.094 66.259 0 90.353l361.412 433.694c12.047 24.094 36.141 30.118 60.235 30.118z" />
<glyph unicode="&#xe90f;" glyph-name="chevron-right-icon" d="M313.224-57.976c-42.165 0-72.282 30.118-72.282 72.282 0 18.071 6.024 36.141 18.071 48.188l325.271 385.506-313.224 391.529c-30.118 30.118-24.094 78.306 12.047 102.4 30.118 24.094 78.306 24.094 102.4-12.047v0l349.365-433.694c24.094-24.094 24.094-66.259 0-90.353l-361.412-433.694c-12.047-18.071-36.141-30.118-60.235-30.118z" />
<glyph unicode="&#xe910;" glyph-name="chevron-up-icon" d="M0 277.333c0-45.511 34.133-79.644 79.644-79.644 22.756 0 34.133 11.378 45.511 22.756l398.222 329.956 398.222-318.578c34.133-22.756 79.644-22.756 102.4 11.378 0 0 0 0 0 0 34.133 34.133 34.133 79.644 0 102.4 0 0 0 0 0 0l-455.111 375.467c-22.756 11.378-68.267 11.378-91.022 0l-455.111-375.467c-11.378-22.756-22.756-45.511-22.756-68.267z" />
<glyph unicode="&#xe911;" glyph-name="close-icon" d="M122.635 935.473l386.299-386.299 386.299 386.299c24.527 30.659 73.581 30.659 98.108 6.132 30.659-24.527 30.659-73.581 6.132-98.108 0 0 0 0-6.132-6.132l-380.168-386.299 386.299-386.299c30.659-24.527 30.659-73.581 6.132-98.108-24.527-30.659-73.581-30.659-98.108-6.132 0 0 0 0-6.132 6.132l-392.431 380.168-386.299-386.299c-24.527-30.659-67.449-36.79-98.108-6.132-30.659 24.527-36.79 67.449-6.132 98.108 0 0 6.132 6.132 6.132 6.132l386.299 386.299-386.299 392.431c-24.527 24.527-30.659 73.581 0 98.108 30.659 30.659 73.581 30.659 98.108 0z" />
<glyph unicode="&#xe912;" glyph-name="facebook-icon" d="M238.933 618.667v-157.013h116.053v-532.48h211.627v532.48h170.667l13.653 157.013h-184.32v122.88c0 47.787 61.44 54.613 81.92 54.613 34.133 0 61.44-6.827 88.747-13.653l27.307 157.013c-68.267 13.653-136.533 20.48-204.8 20.48-68.267 6.827-136.533-27.307-177.493-75.093-20.48-47.787-34.133-109.227-27.307-163.84v-102.4h-116.053z" />
<glyph unicode="&#xe913;" glyph-name="icon-bell-notificacion-read" d="M314.027 273.92l-10.24-10.24c-6.827-6.827-6.827-17.067 0-23.893s17.067-6.827 23.893 0l30.72 30.72h78.507c3.413-40.96 37.547-75.093 78.507-71.68 37.547 3.413 68.267 34.133 71.68 71.68 40.96 0 78.507 0 109.227 0 20.48 0 37.547 17.067 37.547 37.547 0 6.827-3.413 17.067-6.827 23.893-47.787 64.853-51.2 150.187-64.853 221.867 0 3.413-3.413 10.24-3.413 13.653l61.44 61.44c6.827 6.827 6.827 17.067 0 23.893s-17.067 6.827-23.893 0l-47.787-47.787c-34.133 75.093-122.88 112.64-197.973 78.507-10.24-3.413-17.067-10.24-27.307-17.067-30.72-30.72-51.2-71.68-54.613-112.64-13.653-71.68-17.067-157.013-64.853-221.867-13.653-17.067-10.24-40.96 6.827-54.613-3.413 0 0-3.413 3.413-3.413v0zM552.96 270.507h-78.507c3.413-20.48 20.48-37.547 44.373-34.133 17.067 0 30.72 13.653 34.133 34.133zM628.053 536.747c13.653-71.68 20.48-160.427 71.68-225.28v0c0 0 0-3.413 0-3.413s0 0-3.413 0v0c-71.68 0-204.8 0-300.373 0l232.107 228.693z" />
<glyph unicode="&#xe914;" glyph-name="icon-bell-notificacion-remove" d="M459.469 728.576c-3.413 0-10.24-3.413-10.24-6.827l-10.24-30.72h-126.293c-6.827 0-13.653-6.827-13.653-13.653 0-10.24-6.827-13.653-10.24-20.48 0-10.24-3.413-30.72 13.653-30.72h423.253c17.067 3.413 13.653 17.067 10.24 30.72-6.827 6.827-10.24 13.653-10.24 20.48s-6.827 13.653-13.653 13.653h-126.293l-10.24 30.72c-3.413 3.413-6.827 6.827-13.653 6.827h-102.4zM469.709 704.683h85.333l10.24-30.72c3.413-6.827 6.827-10.24 13.653-10.24h119.467c0-3.413 3.413-10.24 6.827-13.653h-389.12c3.413 6.827 6.827 10.24 6.827 13.653h122.88c6.827 0 10.24 3.413 13.653 10.24l10.24 30.72zM333.175 612.523c-6.827 0-10.24-6.827-10.24-13.653l13.653-419.84c0-6.827 6.827-13.653 13.653-13.653h331.093c6.827 0 13.653 6.827 13.653 13.653l13.653 419.84c0 6.827-6.827 13.653-13.653 13.653h-361.813zM346.829 588.629h331.093l-13.653-395.947h-307.2l-10.24 395.947zM428.749 547.669c-6.827-3.413-13.653-3.413-13.653-13.653l13.653-286.72c0-6.827 6.827-13.653 13.653-10.24 6.827 0 10.24 6.827 10.24 13.653l-10.24 283.307c0 6.827-6.827 13.653-13.653 13.653 0 0 0 0 0 0v0zM510.669 547.669c-6.827 0-10.24-6.827-10.24-13.653v-286.72c0-6.827 6.827-13.653 13.653-13.653s13.653 6.827 13.653 13.653v286.72c-3.413 6.827-10.24 13.653-17.067 13.653 0 0 0 0 0 0v0zM592.589 547.669c-6.827 0-10.24-6.827-13.653-13.653l-13.653-286.72c0-6.827 6.827-13.653 13.653-13.653s13.653 6.827 13.653 10.24l13.653 286.72c0 10.24-3.413 17.067-13.653 17.067 0 0 0 0 0 0v0z" />
<glyph unicode="&#xe915;" glyph-name="icon-bell-notificacions" d="M348.654 499.017c0-109.714-25.6-144.457-40.229-153.6-21.943-14.629-27.429-42.057-12.8-64 9.143-12.8 21.943-20.114 38.4-20.114h354.743c25.6 0 45.714 20.114 45.714 45.714 0 14.629-7.314 29.257-20.114 38.4-14.629 10.971-40.229 43.886-40.229 153.6 0 102.4-62.171 144.457-107.886 160.914 0 3.657 1.829 7.314 1.829 10.971 0 31.086-25.6 54.857-54.857 54.857-31.086 0-54.857-25.6-54.857-54.857 0-3.657 0-7.314 1.829-10.971-47.543-16.457-111.543-58.514-111.543-160.914v0zM511.397 703.817c16.457 0 31.086-12.8 31.086-29.257 0 0 0 0 0 0 0-1.829 0-3.657 0-5.486-20.114 3.657-40.229 3.657-60.343 0 0 1.829 0 3.657 0 5.486-1.829 14.629 12.8 29.257 29.257 29.257v0zM480.311 641.646v0c10.971 3.657 21.943 3.657 32.914 3.657s21.943-1.829 31.086-5.486v0c47.543-12.8 106.057-49.371 106.057-142.629-1.829-45.714 5.486-91.429 20.114-133.486h-250.514c-7.314 0-12.8-5.486-12.8-12.8s5.486-12.8 12.8-12.8h265.143c5.486-5.486 10.971-10.971 16.457-16.457 5.486-3.657 9.143-10.971 9.143-18.286 0-10.971-9.143-21.943-21.943-21.943h-354.743c-10.971 0-21.943 9.143-21.943 21.943 0 7.314 3.657 14.629 9.143 18.286 32.914 23.771 51.2 82.286 51.2 173.714 1.829 96.914 58.514 133.486 107.886 146.286v0zM518.711 168.046c38.4 0 71.314 27.429 76.8 65.829l1.829 14.629h-157.257l1.829-14.629c5.486-36.571 38.4-65.829 76.8-65.829v0zM566.254 222.903c-10.971-25.6-42.057-38.4-67.657-25.6-10.971 5.486-20.114 14.629-25.6 25.6h93.257zM388.882 339.931h1.829c0 0 1.829 0 1.829 0s1.829 0 1.829 1.829 1.829 1.829 3.657 1.829c1.829 1.829 3.657 5.486 3.657 9.143s-1.829 5.486-3.657 9.143c0 0-1.829 1.829-1.829 1.829s-1.829 0-1.829 1.829c0 0-1.829 0-1.829 0-3.657 0-7.314 0-10.971-3.657-5.486-5.486-5.486-12.8 0-18.286 1.829-1.829 3.657-3.657 7.314-3.657v0z" />
<glyph unicode="&#xe916;" glyph-name="icon-check" d="M943.543 813.714c-7.314 0-21.943-7.314-29.257-14.629-14.629-14.629-153.6-160.914-292.571-299.886-124.343-131.657-234.057-241.371-263.314-277.943l-285.257 219.429c-21.943 14.629-51.2 14.629-65.829-7.314-14.629-14.629-7.314-43.886 7.314-58.514 0 0 0 0 0 0l314.514-241.371c14.629-14.629 43.886-14.629 58.514 7.314 14.629 14.629 153.6 160.914 292.571 299.886s277.943 292.571 292.571 299.886c14.629 14.629 14.629 43.886 0 65.829 0 7.314-14.629 7.314-29.257 7.314v0z" />
<glyph unicode="&#xe917;" glyph-name="instagram-icon" d="M293.594 960c-164.699 0-293.594-128.895-293.594-293.594v-436.811c0-157.538 128.895-293.594 293.594-293.594h436.811c157.538 0 293.594 128.895 293.594 293.594v436.811c0 157.538-128.895 293.594-293.594 293.594h-436.811zM730.406 29.091h-436.811c-114.573 0-200.503 93.091-200.503 200.503v436.811c0 114.573 93.091 200.503 200.503 200.503h436.811c114.573 0 200.503-93.091 200.503-200.503v-436.811c0-114.573-85.93-200.503-200.503-200.503zM508.42 709.371c-143.217 0-257.79-114.573-257.79-257.79s114.573-257.79 257.79-257.79 257.79 114.573 257.79 257.79c7.161 143.217-114.573 257.79-257.79 257.79v0zM780.531 788.14c-35.804 0-64.448-28.643-64.448-64.448s28.643-64.448 64.448-64.448c35.804 0 64.448 28.643 64.448 64.448s-28.643 64.448-64.448 64.448c0 0 0 0 0 0v0zM508.42 272.559c-93.091 0-171.86 78.769-171.86 171.86s78.769 171.86 171.86 171.86c93.091 0 171.86-78.769 171.86-171.86 0 0 0 0 0 0 7.161-93.091-71.608-171.86-171.86-171.86v0z" />
<glyph unicode="&#xe918;" glyph-name="logout-icon" d="M339.904 397.056h524.8l-160-192c-12.8-19.2-6.4-51.2 12.8-64s44.8-12.8 57.6 6.4l224 268.8c0 0 0 6.4 6.4 6.4v6.4c6.4 12.8 6.4 19.2 0 32v6.4c0 0 0 6.4-6.4 6.4l-224 268.8c-12.8 19.2-44.8 25.6-64 12.8-19.2-19.2-25.6-44.8-12.8-64l6.4-6.4 160-192h-524.8c-25.6-6.4-44.8-32-44.8-51.2 6.4-25.6 19.2-38.4 44.8-44.8v0zM416-76.8v0h-268.8c-32 0-64 12.8-83.2 32s-32 51.2-32 83.2v806.4c0 32 12.8 64 32 83.2s51.2 32 83.2 32v0h268.8c64 0 121.6-51.2 121.6-121.6v-172.8c0-25.6-19.2-44.8-44.8-44.8v0c-25.6 0-44.8 19.2-44.8 44.8v179.2c0 12.8-12.8 25.6-25.6 25.6h-268.8c-19.2 0-25.6-12.8-25.6-25.6v-806.4c0-19.2 12.8-25.6 25.6-25.6v0h275.2c6.4 0 12.8 6.4 19.2 6.4 6.4 6.4 6.4 12.8 6.4 19.2v179.2c0 25.6 19.2 44.8 44.8 44.8s44.8-19.2 44.8-44.8v-179.2c0-32-12.8-64-38.4-83.2s-57.6-32-89.6-32z" />
<glyph unicode="&#xe919;" glyph-name="search-icon" d="M1014.063 7.301l-250.311 250.311c151.704 182.044 128.948 455.111-60.681 606.815-182.044 151.704-455.111 128.948-606.815-60.681s-128.948-455.111 60.681-606.815c159.289-128.948 386.844-128.948 546.133 0l250.311-250.311c15.17-15.17 45.511-15.17 60.681 0s15.17 45.511 0 60.681v0 0zM771.337 530.679c0-189.63-151.704-341.333-341.333-341.333s-341.333 151.704-341.333 341.333 151.704 341.333 341.333 341.333c0 0 0 0 0 0 189.63 0 341.333-151.704 341.333-341.333z" />
<glyph unicode="&#xe91a;" glyph-name="twitter-icon" d="M0 118.857v0c95.086-58.514 204.8-95.086 314.514-95.086 168.229-7.314 329.143 65.829 438.857 190.171 95.086 109.714 153.6 248.686 153.6 394.971 0 7.314 0 14.629 0 29.257 43.886 29.257 73.143 65.829 102.4 109.714-36.571-14.629-80.457-29.257-117.029-29.257 43.886 29.257 73.143 65.829 87.771 117.029-43.886-21.943-87.771-43.886-131.657-51.2-36.571 43.886-95.086 65.829-146.286 65.829-117.029 0-212.114-95.086-212.114-204.8 0-14.629 0-29.257 7.314-43.886-168.229 0-321.829 80.457-424.229 212.114-21.943-29.257-29.257-65.829-29.257-102.4 0-65.829 36.571-131.657 95.086-175.543-29.257 0-65.829 7.314-95.086 29.257v0c0-95.086 73.143-182.857 168.229-204.8-21.943-7.314-43.886-14.629-58.514-14.629s-29.257 0-36.571 7.314c21.943-87.771 102.4-146.286 190.171-146.286-73.143-58.514-160.914-87.771-256-87.771-21.943 0-36.571 0-51.2 0z" />
<glyph unicode="&#xe91b;" glyph-name="user-icon" d="M503.808 416.492c-149.662 0-271.754 122.092-271.754 271.754s122.092 271.754 271.754 271.754c149.662 0 271.754-122.092 271.754-271.754s-122.092-271.754-271.754-271.754zM503.808 912.738c-122.092 0-220.554-98.462-220.554-220.554s98.462-220.554 220.554-220.554 220.554 98.462 220.554 220.554c3.938 118.154-94.523 220.554-220.554 220.554 0 0 0 0 0 0v0zM503.808-44.308c-114.215 0-228.431 35.446-322.954 106.338-19.692 15.754-39.385 31.508-55.138 47.262-19.692 19.692-39.385 39.385-55.138 63.015-11.815 15.754-23.631 31.508-31.508 47.262-3.938 7.877-3.938 15.754 0 23.631 7.877 15.754 15.754 35.446 27.569 51.2 55.138 78.769 137.846 133.908 232.369 145.723 11.815 0 23.631 0 35.446-7.877 47.262-35.446 106.338-55.138 169.354-55.138 59.077 0 122.092 19.692 169.354 55.138 11.815 7.877 23.631 11.815 35.446 7.877 94.523-11.815 181.169-66.954 232.369-145.723 11.815-15.754 19.692-31.508 27.569-51.2 3.938-7.877 3.938-15.754 0-23.631-7.877-15.754-19.692-31.508-31.508-47.262-15.754-23.631-35.446-43.323-55.138-63.015-15.754-15.754-35.446-31.508-55.138-47.262-94.523-70.892-204.8-106.338-322.954-106.338v0zM90.27 231.385c7.877-11.815 15.754-23.631 23.631-31.508 15.754-19.692 31.508-39.385 47.262-55.138s31.508-31.508 51.2-43.323c86.646-63.015 189.046-94.523 291.446-94.523 106.338 0 208.738 35.446 291.446 98.462 15.754 11.815 35.446 27.569 51.2 43.323 19.692 15.754 35.446 35.446 47.262 55.138 7.877 7.877 15.754 19.692 23.631 31.508-3.938 11.815-11.815 19.692-19.692 31.508-43.323 66.954-118.154 114.215-196.923 126.031-59.077-43.323-126.031-66.954-196.923-66.954s-141.785 23.631-196.923 63.015c-82.708-11.815-153.6-55.138-196.923-126.031-7.877-11.815-11.815-23.631-19.692-31.508v0z" />
<glyph unicode="&#xe91c;" glyph-name="youtube-icon" d="M116.053 789.333c-61.44 0-116.053-54.613-116.053-116.053v-471.040c0-61.44 54.613-116.053 116.053-122.88h778.24c68.267 0 116.053 54.613 122.88 122.88v471.040c-6.827 61.44-61.44 116.053-122.88 116.053h-778.24zM423.253 290.987c-13.653 0-27.307 6.827-27.307 20.48v245.76c0 13.653 6.827 27.307 20.48 27.307 0 0 0 0 0 0 6.827 0 13.653 0 13.653-6.827l211.627-116.053c6.827-6.827 13.653-13.653 13.653-20.48s-6.827-20.48-13.653-27.307l-211.627-122.88c0 0-6.827 0-6.827 0z" />
<glyph unicode="&#xe91d;" glyph-name="filter-icon" horiz-adv-x="980" d="M40.813 755.053h489.952c24.498-83.292 112.689-137.187 195.981-112.689 53.895 14.699 97.99 58.794 112.689 112.689h93.091c24.498 0 44.096 19.598 44.096 44.096s-19.598 44.096-44.096 44.096h-93.091c-24.498 83.292-112.689 137.187-195.981 112.689-53.895-14.699-97.99-58.794-112.689-112.689h-489.952c-24.498 0-44.096-19.598-44.096-44.096 4.9-24.498 24.498-44.096 44.096-44.096zM687.55 872.642c39.196 0 73.493-34.297 73.493-73.493s-34.297-73.493-73.493-73.493c-39.196 0-73.493 34.297-73.493 73.493 0 19.598 9.799 39.196 24.498 53.895 9.799 14.699 29.397 19.598 48.995 19.598zM937.425 490.479h-489.952c-24.498 83.292-112.689 137.187-195.981 112.689-53.895-14.699-97.99-58.794-112.689-112.689h-93.091c-24.498 0-44.096-19.598-44.096-44.096s19.598-44.096 44.096-44.096v0h93.091c24.498-83.292 112.689-137.187 195.981-112.689 53.895 14.699 97.99 58.794 112.689 112.689h489.952c24.498 0 44.096 19.598 44.096 44.096s-24.498 44.096-44.096 44.096v0zM290.689 372.89c-39.196 0-73.493 34.297-73.493 73.493s34.297 73.493 73.493 73.493 73.493-34.297 73.493-73.493c0-19.598-9.799-39.196-24.498-53.895-9.799-9.799-29.397-19.598-48.995-19.598zM937.425 137.713h-97.99c-24.498 83.292-112.689 137.187-195.981 112.689-53.895-14.699-97.99-58.794-112.689-112.689h-489.952c-24.498 0-44.096-19.598-44.096-44.096s19.598-44.096 44.096-44.096h489.952c24.498-83.292 112.689-137.187 195.981-112.689 53.895 14.699 97.99 58.794 112.689 112.689h93.091c24.498 0 44.096 19.598 44.096 44.096s-19.598 44.096-39.196 44.096v0 0zM687.55 20.125c-39.196 0-73.493 34.297-78.392 73.493 0 39.196 34.297 73.493 73.493 78.392 39.196 0 73.493-34.297 78.392-73.493 0-19.598-9.799-39.196-19.598-53.895-14.699-14.699-34.297-24.498-53.895-24.498z" />
<glyph unicode="&#xe91e;" glyph-name="icon-clock-update" horiz-adv-x="1018" d="M88.174 735.272c159.425 233.006 472.144 300.455 705.15 141.030 190.084-128.766 275.928-367.904 202.347-588.647l-67.449 24.527c79.713 226.874-42.922 478.275-275.928 557.988-190.084 61.317-392.431-6.132-502.802-171.689l-61.317 36.79zM443.815 275.392l-134.898 134.898 49.054 49.054 73.581-73.581 233.006 233.006 61.317-61.317-282.060-282.060zM866.905-61.854v190.084h-196.216v85.844h263.665v-282.060h-67.449zM69.779 673.954v282.060h85.844v-196.216h177.82v-85.844h-263.665zM149.492 91.44c-134.898 134.898-183.952 331.114-128.766 515.066l67.449-24.527c-49.054-153.293-6.132-324.982 110.371-441.485 171.689-171.689 447.617-171.689 619.305 0 18.395 18.395 36.79 42.922 55.186 67.449l61.317-42.922c-153.293-233.006-472.144-300.455-705.15-141.030-30.659 18.395-55.186 42.922-79.713 67.449v0z" />
<glyph unicode="&#xe91f;" glyph-name="icon-person" horiz-adv-x="1132" d="M571.015 501.895c91.621 5.389 161.684 80.842 156.295 172.463 5.389 97.011-64.674 172.463-156.295 177.853-91.621-5.389-161.684-80.842-156.295-172.463-5.389-91.621 64.674-172.463 156.295-177.853v0zM571.015 765.979c48.505 0 80.842-43.116 80.842-86.232 0-48.505-32.337-86.232-80.842-86.232s-80.842 43.116-80.842 86.232c0 43.116 32.337 86.232 80.842 86.232zM565.625 415.663c-204.8 0-366.484-134.737-366.484-307.2 0-26.947 26.947-48.505 53.895-43.116 26.947 0 48.505 16.168 53.895 43.116 0 118.568 118.568 220.968 264.084 220.968s264.084-97.011 264.084-220.968c5.389-26.947 32.337-48.505 64.674-43.116 21.558 5.389 37.726 21.558 43.116 43.116-10.779 172.463-172.463 307.2-377.263 307.2z" />
<glyph unicode="&#xe920;" glyph-name="icon-arrow-down-dropdown" horiz-adv-x="1713" d="M740.119 909.307c60.832 60.832 162.218 60.832 233.188 0 0 0 0 0 0 0l689.426-699.564c60.832-60.832 60.832-172.356 0-233.188s-162.218-60.832-233.188 0c0 0 0 0 0 0l-577.901 588.040-567.762-588.040c-60.832-60.832-162.218-60.832-233.188 0 0 0 0 0 0 0-70.97 70.97-70.97 172.356 0 233.188l689.426 699.564z" />
<glyph unicode="&#xe921;" glyph-name="icon-arrow-up-dropdown" horiz-adv-x="1713" d="M973.307-23.446c-60.832-60.832-162.218-60.832-233.188 0 0 0 0 0 0 0l-689.426 699.564c-60.832 60.832-60.832 172.356 0 233.188s162.218 60.832 233.188 0c0 0 0 0 0 0l577.901-577.901 577.901 577.901c60.832 60.832 162.218 60.832 233.188 0 0 0 0 0 0 0 60.832-60.832 60.832-172.356 0-233.188l-699.564-699.564z" />
<glyph unicode="&#xe922;" glyph-name="upload-icon" horiz-adv-x="1017" d="M966.212-64h-919.643c-26.089 0-52.178 19.567-52.178 45.656 0 0 0 0 0 0v463.083c0 26.089 26.089 52.178 52.178 45.656 0 0 0 0 0 0 26.089 0 52.178-19.567 52.178-45.656 0 0 0 0 0 0v-417.427h815.287v417.427c0 26.089 26.089 52.178 52.178 45.656 0 0 0 0 0 0 26.089 0 52.178-19.567 52.178-45.656 0 0 0 0 0 0v-463.083c0-26.089-26.089-45.656-52.178-45.656v0zM737.932 751.287l-195.669 195.669c-19.567 19.567-52.178 19.567-71.745 0l-195.669-195.669c-6.522-6.522-13.045-19.567-13.045-32.611s6.522-26.089 13.045-32.611c6.522-6.522 19.567-13.045 32.611-13.045s26.089 6.522 32.611 13.045l104.357 104.357v-502.217c0-26.089 26.089-52.178 52.178-52.178s52.178 26.089 52.178 52.178v502.217l110.879-110.879c19.567-19.567 52.178-19.567 71.745 0 6.522 6.522 13.045 19.567 13.045 32.611 13.045 13.045 6.522 26.089-6.522 39.134z" />
<glyph unicode="&#xe923;" glyph-name="arrow-last-item-icon" horiz-adv-x="1243" d="M585.143 374.857c41.796 41.796 41.796 104.49 0 135.837 0 0 0 0 0 0l-417.959 417.959c-41.796 41.796-104.49 41.796-135.837 0-41.796-41.796-41.796-104.49 0-135.837 0 0 0 0 0 0l344.816-344.816-344.816-344.816c-41.796-41.796-41.796-104.49 0-135.837 0 0 0 0 0 0 41.796-41.796 104.49-41.796 135.837 0l417.959 407.51zM1212.082 374.857c41.796 41.796 41.796 104.49 0 135.837 0 0 0 0 0 0l-417.959 417.959c-41.796 41.796-104.49 41.796-135.837 0-41.796-41.796-41.796-104.49 0-135.837 0 0 0 0 0 0l344.816-344.816-344.816-344.816c-41.796-41.796-41.796-104.49 0-135.837 0 0 0 0 0 0 41.796-41.796 104.49-41.796 135.837 0l417.959 407.51z" />
<glyph unicode="&#xe924;" glyph-name="arrow-first-item-icon" horiz-adv-x="1243" d="M658.913 374.857c-41.796 41.796-41.796 104.49 0 135.837 0 0 0 0 0 0l417.959 417.959c41.796 41.796 104.49 41.796 135.837 0 41.796-41.796 41.796-104.49 0-135.837 0 0 0 0 0 0l-344.816-344.816 344.816-344.816c41.796-41.796 41.796-104.49 0-135.837 0 0 0 0 0 0-41.796-41.796-104.49-41.796-135.837 0l-417.959 407.51zM31.974 374.857c-41.796 41.796-41.796 104.49 0 135.837 0 0 0 0 0 0l417.959 417.959c41.796 41.796 104.49 41.796 135.837 0 41.796-41.796 41.796-104.49 0-135.837 0 0 0 0 0 0l-344.816-344.816 344.816-344.816c41.796-41.796 41.796-104.49 0-135.837 0 0 0 0 0 0-41.796-41.796-104.49-41.796-135.837 0l-417.959 407.51z" />
<glyph unicode="&#xe925;" glyph-name="comillas-close" horiz-adv-x="1570" d="M1026.86-64c383.285 160.179 586.369 469.095 534.883 709.363-28.603 128.715-143.017 291.754-317.497 311.777-177.341 20.022-371.844-114.413-397.587-308.916-28.603-203.084 137.296-406.168 368.983-417.609-11.441-34.324-25.743-74.369-45.765-114.413-45.765-82.95-100.112-140.156-143.017-180.201v0zM185.922-64c380.425 160.179 586.369 469.095 532.022 709.363-28.603 128.715-143.017 291.754-317.497 311.777-177.341 20.022-371.844-114.413-397.587-308.916-28.603-203.084 140.156-406.168 368.983-414.749-11.441-34.324-25.743-74.369-45.765-114.413-45.765-82.95-97.251-143.017-140.156-183.061v0z" />
<glyph unicode="&#xe926;" glyph-name="comillas-open" horiz-adv-x="1570" d="M543.464 960c-383.285-160.179-589.229-469.095-534.883-709.363 28.603-128.715 143.017-291.754 317.497-311.777 177.341-20.022 371.844 114.413 397.587 308.916 28.603 203.084-140.156 406.168-368.983 417.609 11.441 34.324 25.743 74.369 45.765 114.413 45.765 82.95 100.112 140.156 143.017 180.201v0zM1384.402 960c-383.285-160.179-589.229-469.095-534.883-709.363 28.603-128.715 143.017-291.754 317.497-311.777 177.341-20.022 371.844 114.413 397.587 308.916 28.603 203.084-137.296 406.168-368.983 417.609 11.441 34.324 25.743 74.369 45.765 114.413 45.765 82.95 100.112 140.156 143.017 180.201v0z" />
<glyph unicode="&#xe927;" glyph-name="back" horiz-adv-x="1234" d="M160.386 565.205l86.361-92.53c30.843-37.012 61.687-74.024 98.699-111.036 18.506-18.506 18.506-49.349 0-74.024 0 0 0 0-6.169-6.169-18.506-18.506-55.518-18.506-74.024 6.169 0 0 0 0 0 6.169-74.024 86.361-148.048 172.723-222.072 252.916-6.169 12.337-18.506 24.675-30.843 37.012-18.506 18.506-18.506 49.349 0 74.024 80.193 92.53 166.554 191.229 246.747 283.759 18.506 18.506 49.349 24.675 74.024 12.337 6.169-6.169 12.337-12.337 18.506-18.506 12.337-18.506 12.337-43.181-6.169-61.687-37.012-43.181-80.193-86.361-117.205-129.542-18.506-24.675-43.181-49.349-61.687-74.024 0 0-6.169 0 0-6.169h12.337c222.072 0 444.145 0 666.217 0 55.518 0 111.036-6.169 160.386-24.675 98.699-37.012 178.892-123.373 209.735-222.072 37.012-98.699 24.675-209.735-30.843-302.265-43.181-80.193-123.373-141.88-209.735-166.554-37.012-12.337-74.024-18.506-111.036-18.506-246.747 0-487.325 0-734.072 0-24.675 0-49.349 12.337-55.518 37.012s6.169 55.518 37.012 61.687c6.169 0 6.169 0 12.337 0 0 6.169 0 6.169 6.169 6.169 240.578 0 487.325 0 727.904 0 98.699 0 191.229 49.349 234.41 135.711 55.518 98.699 43.181 222.072-30.843 308.434-43.181 49.349-104.867 80.193-166.554 86.361-12.337 0-24.675 0-37.012 0-228.241 0-456.482 0-684.723 0h-12.337z" />
<glyph unicode="&#xe928;" glyph-name="circle-check" d="M715.851 630.322l-279.727-279.727-124.878 124.878c-14.985 14.985-39.961 14.985-59.941 0-14.985-14.985-14.985-39.961 0-59.941 0 0 0 0 0 0l154.849-154.849c14.985-14.985 39.961-14.985 59.941 0l304.702 304.702c14.985 14.985 14.985 39.961 0 59.941s-39.961 19.98-54.946 4.995c0 0 0 0 0 0v0zM511.051 960c-284.722 0-514.498-229.776-514.498-514.498s229.776-514.498 514.498-514.498 514.498 229.776 514.498 514.498c0 284.722-229.776 514.498-514.498 514.498zM511.051 15.922c-239.766 0-429.58 194.81-429.58 429.58 0 239.766 194.81 429.58 429.58 429.58 239.766 0 429.58-194.81 429.58-429.58 0 0 0 0 0 0 0-234.771-189.815-429.58-429.58-429.58z" />
<glyph unicode="&#xe929;" glyph-name="save" d="M1008.64 750.080c-66.56 66.56-133.12 128-194.56 194.56-10.24 10.24-20.48 15.36-35.84 15.36-225.28 0-445.44 0-670.72 0-56.32 5.12-102.4-40.96-107.52-97.28 0-5.12 0-5.12 0-10.24 0-133.12 0-271.36 0-404.48s0-271.36 0-404.48c-5.12-56.32 40.96-102.4 97.28-107.52 5.12 0 5.12 0 10.24 0h808.96c56.32-5.12 102.4 40.96 107.52 97.28 0 5.12 0 5.12 0 10.24 0 225.28 0 445.44 0 670.72 0 15.36-5.12 25.6-15.36 35.84zM373.76 883.2c0 5.12 0 10.24 10.24 10.24 40.96 0 87.040 0 128 0s87.040 0 128 0c5.12 0 10.24 0 10.24-10.24 0-61.44 0-122.88 0-189.44 0-5.12 0-10.24-10.24-10.24-87.040 0-168.96 0-256 0-5.12 0-10.24 0-10.24 10.24 0 66.56 0 128 0 189.44v0zM773.12 2.56c-87.040 0-174.080 0-261.12 0s-174.080 0-261.12 0c-10.24 0-10.24 0-10.24 10.24 0 76.8 0 148.48 0 225.28 0 20.48 10.24 35.84 30.72 35.84 0 0 5.12 0 5.12 0h471.040c20.48 0 35.84-10.24 35.84-30.72 0 0 0-5.12 0-5.12 0-76.8 0-148.48 0-225.28 0-5.12 0-10.24-10.24-10.24v0zM957.44 43.52c0-20.48-10.24-35.84-30.72-40.96 0 0-5.12 0-5.12 0-20.48 0-35.84 0-56.32 0-10.24 0-10.24 0-10.24 10.24 0 76.8 0 148.48 0 225.28 5.12 56.32-40.96 102.4-97.28 107.52-5.12 0-5.12 0-10.24 0h-471.040c-56.32 0-102.4-40.96-107.52-97.28 0-5.12 0-5.12 0-10.24 0-76.8 0-148.48 0-225.28 0-10.24 0-10.24-10.24-10.24-20.48 0-35.84 0-56.32 0s-35.84 10.24-40.96 30.72c0 5.12 0 5.12 0 10.24 0 133.12 0 271.36 0 404.48s0 271.36 0 404.48c0 30.72 10.24 40.96 40.96 40.96 61.44 0 122.88 0 184.32 0 20.48 0 20.48-5.12 20.48-15.36 0-61.44 0-122.88 0-189.44 0-35.84 25.6-66.56 66.56-71.68 0 0 5.12 0 5.12 0 87.040 0 179.2 0 266.24 0 35.84 0 66.56 30.72 71.68 66.56 0 0 0 5.12 0 5.12 0 66.56 0 128 0 194.56 0 5.12 0 10.24 10.24 10.24 15.36 0 30.72 0 46.080 0 10.24-5.12 20.48-20.48 30.72-30.72 51.2-51.2 97.28-97.28 148.48-148.48 5.12-5.12 5.12-10.24 5.12-15.36 0-220.16 0-435.2 0-655.36v0z" />
<glyph unicode="&#xe92a;" glyph-name="vieta" horiz-adv-x="1177" d="M1062.241 960h-943.27c-67.983 0-118.971-50.988-118.971-118.971v-556.614c0-63.734 50.988-118.971 118.971-118.971h12.747v-110.473c0-63.734 50.988-118.971 118.971-118.971 29.743 0 59.485 12.747 80.73 33.992l203.95 195.452h526.871c63.734 0 118.971 50.988 118.971 118.971v556.614c-4.249 67.983-55.237 118.971-118.971 118.971-4.249 0-4.249 0 0 0zM118.971 233.427c-25.494 0-46.739 21.245-46.739 50.988v556.614c0 25.494 21.245 50.988 50.988 50.988h939.021c25.494 0 50.988-21.245 50.988-50.988v-556.614c0-25.494-21.245-50.988-50.988-50.988h-552.365l-225.195-216.697c-21.245-16.996-50.988-16.996-67.983 0-8.498 8.498-12.747 21.245-12.747 33.992v178.456l-84.979 4.249zM565.112 671.071h-305.925c-16.996 0-33.992 16.996-33.992 33.992s12.747 33.992 33.992 33.992h305.925c16.996 0 33.992-12.747 33.992-33.992s-16.996-33.992-33.992-33.992zM743.568 526.606h-484.382c-16.996 0-33.992 16.996-33.992 33.992s12.747 33.992 33.992 33.992h484.382c16.996 0 33.992-16.996 33.992-33.992-4.249-21.245-16.996-33.992-33.992-33.992v0 0zM922.025 382.141h-662.838c-16.996 0-33.992 16.996-33.992 33.992s12.747 33.992 33.992 33.992h662.838c16.996 0 33.992-16.996 33.992-33.992-4.249-16.996-16.996-33.992-33.992-33.992-4.249 0-4.249 0 0 0z" />
<glyph unicode="&#xe92b;" glyph-name="alert-round" d="M511.424-64c-282.205 0-511.424 230.371-511.424 512.576s229.219 511.424 511.424 511.424c282.205 0 511.424-229.219 511.424-511.424 1.152-282.205-229.219-512.576-511.424-512.576zM511.424 925.444c-262.623 0-476.868-214.245-476.868-476.868s214.245-476.868 476.868-476.868c262.623 0 476.868 214.245 476.868 476.868 1.152 262.623-213.093 476.868-476.868 476.868zM350.164 297.683c-10.367 0-19.582 2.304-27.645 8.063-12.67 8.063-23.037 19.582-26.493 34.556s-2.304 29.948 5.759 42.619l168.171 279.901c0 0 0 0 0 0 4.607 8.063 11.519 13.822 19.582 19.582 26.493 16.126 62.2 8.063 78.326-19.582l167.019-279.901c4.607-9.215 8.063-18.43 8.063-28.796 0-14.974-5.759-28.796-16.126-40.315-10.367-10.367-25.341-17.278-40.315-17.278h-336.342zM498.754 645.543l-168.171-279.901c-2.304-4.607-3.456-10.367-2.304-16.126s5.759-10.367 10.367-13.822c3.456-2.304 6.911-3.456 11.519-3.456h335.19c5.759 0 11.519 2.304 14.974 6.911 4.607 4.607 6.911 10.367 6.911 16.126 0 3.456-1.152 8.063-3.456 11.519l-167.019 278.749c-5.759 10.367-19.582 13.822-31.1 6.911-2.304-1.152-4.607-4.607-6.911-6.911zM517.183 455.487c-9.215 0-17.278 8.063-17.278 17.278v79.478c0 9.215 8.063 17.278 17.278 17.278s17.278-8.063 17.278-17.278v-79.478c0-9.215-6.911-17.278-17.278-17.278zM517.183 377.161c-4.607 0-9.215 2.304-12.67 4.607-1.152 1.152-2.304 3.456-3.456 5.759s-1.152 4.607-1.152 6.911 2.304 9.215 4.607 12.67c6.911 6.911 18.43 6.911 24.189 0 3.456-3.456 4.607-8.063 4.607-12.67 0-2.304 0-4.607-1.152-6.911s-2.304-4.607-3.456-5.759-6.911-4.607-11.519-4.607z" />
<glyph unicode="&#xe92c;" glyph-name="copy" d="M640 704v256h-448l-192-192v-576h384v-256h640v768h-384zM192 869.49v-101.49h-101.49l101.49 101.49zM64 256v448h192v192h320v-192l-192-192v-256h-320zM576 613.49v-101.49h-101.49l101.49 101.49zM960 0h-512v448h192v192h320v-640z" />
<glyph unicode="&#xe92d;" glyph-name="alert" horiz-adv-x="1168" d="M147.144-64c-27.026 0-51.050 6.006-72.070 21.021-33.032 21.021-60.059 51.050-69.067 90.088s-6.006 78.076 15.015 111.109l435.425 729.713c0 0 0 0 0 0 12.012 21.021 30.029 36.035 51.050 51.050 69.067 42.041 162.158 21.021 204.199-51.050l435.425-729.713c12.012-24.023 21.021-48.047 21.021-75.073 0-39.038-15.015-75.073-42.041-105.103-27.026-27.026-66.065-45.044-105.103-45.044h-873.853zM534.522 842.886l-435.425-729.713c-6.006-12.012-9.009-27.026-6.006-42.041s15.015-27.026 27.026-36.035c9.009-6.006 18.018-9.009 30.029-9.009h870.85c15.015 0 30.029 6.006 39.038 18.018 12.012 12.012 18.018 27.026 18.018 42.041 0 9.009-3.003 21.021-9.009 30.029l-435.425 726.71c-15.015 27.026-51.050 36.035-81.079 18.018-6.006-3.003-12.012-12.012-18.018-18.018zM582.569 350.405c-24.023 0-45.044 21.021-45.044 45.044v204.199c0 24.023 21.021 45.044 45.044 45.044s45.044-21.021 45.044-45.044v-207.202c0-24.023-18.018-42.041-45.044-42.041zM582.569 143.202c-12.012 0-24.023 6.006-33.032 12.012-3.003 3.003-6.006 9.009-9.009 15.015s-3.003 12.012-3.003 18.018 6.006 24.023 12.012 33.032c18.018 18.018 48.047 18.018 63.062 0 9.009-9.009 12.012-21.021 12.012-33.032 0-6.006 0-12.012-3.003-18.018s-6.006-12.012-9.009-15.015c-6.006-6.006-18.018-12.012-30.029-12.012z" />
<glyph unicode="&#xe92e;" glyph-name="cuadritos-no-relleno" d="M873.095-64h-204.8c-80.842 0-145.516 64.674-145.516 145.516v204.8c0 80.842 64.674 145.516 145.516 145.516h204.8c80.842 0 145.516-64.674 145.516-145.516v-204.8c5.389-80.842-59.284-145.516-145.516-145.516zM673.684 377.937c-53.895 0-91.621-43.116-91.621-97.011v-204.8c0-53.895 43.116-91.621 91.621-91.621h204.8c53.895 0 91.621 43.116 97.011 91.621v204.8c0 53.895-43.116 91.621-91.621 91.621l-210.189 5.389zM145.516-64c-80.842 0-145.516 64.674-145.516 145.516v204.8c0 80.842 64.674 145.516 145.516 145.516h204.8c80.842 0 145.516-64.674 145.516-145.516v-204.8c0-80.842-64.674-145.516-145.516-145.516h-204.8zM145.516 377.937c-53.895 0-91.621-43.116-91.621-97.011v-204.8c0-53.895 43.116-91.621 91.621-91.621h204.8c53.895 0 91.621 43.116 91.621 91.621v204.8c0 53.895-43.116 91.621-91.621 91.621h-204.8zM878.484 458.779h-204.8c-80.842 5.389-145.516 70.063-150.905 150.905v204.8c5.389 80.842 70.063 145.516 150.905 145.516h204.8c80.842 0 145.516-64.674 145.516-145.516v-204.8c0-80.842-64.674-145.516-145.516-150.905zM673.684 906.105c-53.895 0-91.621-43.116-91.621-91.621v-204.8c0-53.895 43.116-91.621 97.011-97.011h204.8c53.895 0 91.621 43.116 97.011 97.011v204.8c0 53.895-43.116 91.621-97.011 91.621h-210.189zM145.516 458.779c-80.842 5.389-145.516 70.063-145.516 150.905v204.8c0 80.842 64.674 145.516 145.516 145.516h204.8c80.842 0 145.516-64.674 145.516-145.516v-204.8c0-80.842-64.674-145.516-145.516-150.905h-204.8zM145.516 906.105c-48.505 0-91.621-43.116-91.621-91.621v-204.8c0-53.895 43.116-91.621 97.011-97.011h199.411c53.895 0 91.621 43.116 91.621 97.011v204.8c0 53.895-43.116 91.621-91.621 91.621h-204.8z" />
<glyph unicode="&#xe92f;" glyph-name="cuadritos-relleno" d="M125.156 960c-68.267 0-125.156-56.889-125.156-125.156v-216.178c0-68.267 56.889-125.156 125.156-130.844h216.178c68.267 0 125.156 56.889 125.156 130.844v216.178c0 68.267-56.889 125.156-125.156 125.156h-216.178zM682.667 960c-68.267 0-125.156-56.889-125.156-125.156v-216.178c0-68.267 56.889-125.156 125.156-130.844h216.178c68.267 5.689 125.156 62.578 125.156 130.844v216.178c0 68.267-56.889 125.156-130.844 125.156h-210.489zM125.156 402.489c-68.267 0-125.156-56.889-125.156-125.156v-216.178c0-68.267 56.889-125.156 125.156-125.156h216.178c68.267 0 125.156 56.889 125.156 125.156v216.178c0 68.267-56.889 125.156-125.156 125.156h-216.178zM682.667 402.489c-68.267 0-125.156-56.889-125.156-125.156v-216.178c0-68.267 56.889-125.156 125.156-125.156h216.178c68.267 0 125.156 56.889 130.844 125.156v216.178c0 68.267-56.889 125.156-125.156 125.156h-221.867z" />
<glyph unicode="&#xe930;" glyph-name="editar" d="M799.495-63.063h-678.36c-67.836 0-122.751 54.915-122.751 122.751v678.36c0 64.606 54.915 119.521 122.751 119.521h339.18v-48.454h-339.18c-38.763 0-71.066-32.303-71.066-71.066v-678.36c0-41.994 32.303-74.297 71.066-74.297h678.36c38.763 0 71.066 32.303 71.066 71.066v339.18h48.454v-339.18c3.23-64.606-51.685-119.521-119.521-119.521zM314.953 227.662c-6.461 0-12.921 3.23-16.151 6.461-6.461 6.461-9.691 16.151-6.461 22.612l48.454 193.817c0 3.23 3.23 9.691 6.461 9.691l458.7 461.931c0 0 0 0 0 0 48.454 48.454 129.211 48.454 180.896 0 48.454-48.454 48.454-129.211 0-177.666l-461.931-461.931c-3.23-3.23-6.461-6.461-9.691-6.461l-193.817-48.454c-3.23 0-3.23 0-6.461 0zM386.019 434.401l-38.763-148.593 148.593 35.533 455.47 455.47c29.073 29.073 29.073 80.757 0 109.83s-80.757 32.303-109.83 0l-455.47-452.24z" />
<glyph unicode="&#xe931;" glyph-name="camera" horiz-adv-x="1240" d="M1104.842-62.204h-970.105c-75.453 0-136.533 61.081-136.533 136.533v589.249c0 75.453 61.081 136.533 136.533 136.533h201.207l100.604 150.905c3.593 7.186 14.372 10.779 21.558 10.779h323.368c10.779 0 17.965-3.593 21.558-10.779l100.604-150.905h201.207c75.453 0 136.533-61.081 136.533-136.533v-592.842c-3.593-75.453-61.081-132.94-136.533-132.94zM134.737 742.625c-43.116 0-79.046-35.93-79.046-79.046v-592.842c0-43.116 35.93-79.046 79.046-79.046h970.105c43.116 0 79.046 35.93 79.046 79.046v592.842c0 43.116-35.93 79.046-79.046 79.046h-215.579c-10.779 0-17.965 3.593-21.558 10.779l-100.604 150.905h-294.625l-100.604-150.905c-3.593-7.186-14.372-10.779-21.558-10.779h-215.579zM619.789 153.375c-132.94 0-244.323 107.789-244.323 244.323 0 132.94 107.789 244.323 244.323 244.323 132.94 0 244.323-107.789 244.323-244.323s-111.382-244.323-244.323-244.323zM619.789 584.533c-104.196 0-186.835-86.232-186.835-186.835 0-104.196 86.232-186.835 186.835-186.835 104.196 0 186.835 86.232 186.835 186.835s-82.639 186.835-186.835 186.835z" />
<glyph unicode="&#xe932;" glyph-name="calendar" horiz-adv-x="1007" d="M832.456 871.869h-57.094v40.395c-0.796 25.741-21.854 46.304-47.714 46.304s-46.918-20.564-47.712-46.231l-0.002-0.073v-40.395h-352.437v40.395c-0.796 25.741-21.854 46.304-47.714 46.304s-46.918-20.564-47.712-46.231l-0.002-0.073v-40.395h-57.094c-0.013 0-0.028 0-0.043 0-96.612 0-174.931-78.319-174.931-174.931 0-0.015 0-0.030 0-0.045v0.002-585.965c0-96.635 78.338-174.974 174.974-174.974h657.568c96.635 0 174.974 78.338 174.974 174.974v0 585.965c0 0.013 0 0.028 0 0.043 0 96.612-78.319 174.931-174.931 174.931-0.015 0-0.030 0-0.045 0h0.002zM175.060 776.441h57.094v-72.205c0.796-25.741 21.854-46.304 47.714-46.304s46.918 20.564 47.712 46.231l0.002 0.073v72.205h352.309v-72.205c0.796-25.741 21.854-46.304 47.714-46.304s46.918 20.564 47.712 46.231l0.002 0.073v72.205h57.094c43.932 0 79.545-35.614 79.545-79.545v0-144.753h-816.573v144.753c0 43.932 35.614 79.545 79.545 79.545v0zM832.456 31.429h-657.525c-43.932 0-79.545 35.614-79.545 79.545v0 345.784h816.616v-345.784c0-43.932-35.614-79.545-79.545-79.545v0z" />
<glyph unicode="&#xe933;" glyph-name="location" horiz-adv-x="781" d="M737.69 745.492c-65.251 128.212-196.23 214.512-347.366 214.512-0.668 0-1.336-0.002-2.003-0.005h0.103c-0.32 0.001-0.699 0.002-1.078 0.002-63.372 0-123.115-15.542-175.623-43.022l2.089 0.995c-91.97-47.191-161.361-127.456-193.251-224.715l-0.777-2.736c-12.624-36.785-19.913-79.169-19.913-123.254 0-63.072 14.918-122.659 41.418-175.426l-1.025 2.253c50.668-100.229 281.313-378.348 307.2-409.6l40.96-48.497 39.895 49.603c10.772 12.943 252.232 307.2 307.2 407.429 28.686 51.456 45.575 112.877 45.575 178.244 0 63.758-16.068 123.763-44.376 176.187l0.972-1.969zM690.258 417.812c-52.838-96.993-301.834-399.892-301.834-399.892s-251.167 301.793-300.728 399.892c-22.069 43.826-34.992 95.518-34.992 150.227 0 131.115 74.223 244.894 182.945 301.611l1.879 0.892c43.356 22.416 94.636 35.559 148.986 35.559 0.672 0 1.344-0.002 2.015-0.006h-0.104c0.197 0 0.429 0.001 0.662 0.001 130.873 0 244.336-74.543 300.247-183.487l0.885-1.898c23.929-43.823 38-95.993 38-151.45s-14.072-107.626-38.839-153.134l0.839 1.684zM389.489 745.492c-97.047 0-175.718-78.672-175.718-175.718s78.672-175.718 175.718-175.718c97.047 0 175.718 78.672 175.718 175.718v0c0 97.047-78.672 175.718-175.718 175.718v0zM389.489 446.935c-67.865 0-122.88 55.015-122.88 122.88s55.015 122.88 122.88 122.88c67.865 0 122.88-55.015 122.88-122.88v0c0-67.865-55.015-122.88-122.88-122.88v0zM737.731 745.492c-65.251 128.212-196.23 214.512-347.366 214.512-0.668 0-1.336-0.002-2.003-0.005h0.103c-0.32 0.001-0.699 0.002-1.078 0.002-63.372 0-123.115-15.542-175.623-43.022l2.089 0.995c-91.97-47.191-161.361-127.456-193.251-224.715l-0.777-2.736c-12.624-36.785-19.913-79.169-19.913-123.254 0-63.072 14.918-122.659 41.418-175.426l-1.025 2.253c50.668-100.229 281.313-378.348 307.2-409.6l40.96-48.497 39.895 49.603c10.772 12.943 252.232 307.2 307.2 407.429 28.686 51.456 45.575 112.877 45.575 178.244 0 63.758-16.068 123.763-44.376 176.187l0.972-1.969zM690.299 417.812c-52.838-96.993-301.834-399.892-301.834-399.892s-251.167 301.793-300.728 399.892c-22.069 43.826-34.992 95.518-34.992 150.227 0 131.115 74.223 244.894 182.945 301.611l1.879 0.892c43.356 22.416 94.636 35.559 148.986 35.559 0.672 0 1.344-0.002 2.015-0.006h-0.104c0.197 0 0.429 0.001 0.662 0.001 130.873 0 244.336-74.543 300.247-183.487l0.885-1.898c23.929-43.823 38-95.993 38-151.45s-14.072-107.626-38.839-153.134l0.839 1.684z" />
<glyph unicode="&#xe9ce;" glyph-name="eye" d="M512 768c-223.318 0-416.882-130.042-512-320 95.118-189.958 288.682-320 512-320 223.312 0 416.876 130.042 512 320-95.116 189.958-288.688 320-512 320zM764.45 598.296c60.162-38.374 111.142-89.774 149.434-150.296-38.292-60.522-89.274-111.922-149.436-150.296-75.594-48.218-162.89-73.704-252.448-73.704-89.56 0-176.858 25.486-252.452 73.704-60.158 38.372-111.138 89.772-149.432 150.296 38.292 60.524 89.274 111.924 149.434 150.296 3.918 2.5 7.876 4.922 11.86 7.3-9.96-27.328-15.41-56.822-15.41-87.596 0-141.382 114.616-256 256-256 141.382 0 256 114.618 256 256 0 30.774-5.452 60.268-15.408 87.598 3.978-2.378 7.938-4.802 11.858-7.302v0zM512 544c0-53.020-42.98-96-96-96s-96 42.98-96 96 42.98 96 96 96 96-42.982 96-96z" />
<glyph unicode="&#xe9d1;" glyph-name="eye-blocked" d="M945.942 945.942c-18.746 18.744-49.136 18.744-67.882 0l-202.164-202.164c-51.938 15.754-106.948 24.222-163.896 24.222-223.318 0-416.882-130.042-512-320 41.122-82.124 100.648-153.040 173.022-207.096l-158.962-158.962c-18.746-18.746-18.746-49.136 0-67.882 9.372-9.374 21.656-14.060 33.94-14.060s24.568 4.686 33.942 14.058l864 864c18.744 18.746 18.744 49.138 0 67.884zM416 640c42.24 0 78.082-27.294 90.92-65.196l-121.724-121.724c-37.902 12.838-65.196 48.68-65.196 90.92 0 53.020 42.98 96 96 96zM110.116 448c38.292 60.524 89.274 111.924 149.434 150.296 3.918 2.5 7.876 4.922 11.862 7.3-9.962-27.328-15.412-56.822-15.412-87.596 0-54.89 17.286-105.738 46.7-147.418l-60.924-60.924c-52.446 36.842-97.202 83.882-131.66 138.342zM768 518c0 27.166-4.256 53.334-12.102 77.898l-321.808-321.808c24.568-7.842 50.742-12.090 77.91-12.090 141.382 0 256 114.618 256 256zM830.026 670.026l-69.362-69.362c1.264-0.786 2.53-1.568 3.786-2.368 60.162-38.374 111.142-89.774 149.434-150.296-38.292-60.522-89.274-111.922-149.436-150.296-75.594-48.218-162.89-73.704-252.448-73.704-38.664 0-76.902 4.76-113.962 14.040l-76.894-76.894c59.718-21.462 123.95-33.146 190.856-33.146 223.31 0 416.876 130.042 512 320-45.022 89.916-112.118 166.396-193.974 222.026z" />
</font>
</defs>
</svg>
